Главная » Сериалы » Доктор Кто / Doctor Who // Сезон 5, эпизоды с 1 по 13 (из 13) (драма, 2010) [BDRip 720p, Профессиональный (многоголосый, закадровый от т/к SyFy, т/к Карусель) + Творческий (многоголосый, закадровый от BaibaKo) + Оригинал + Commentary + Субтитры]
Техподдержка
off AleksMD
Босс ЛС
Доктор Кто / Doctor Who // Сезон 5, эпизоды с 1 по 13 (из 13) (драма, 2010) [BDRip 720p, Профессиональный (многоголосый, закадровый от т/к SyFy, т/к Карусель) + Творческий (многоголосый, закадровый от BaibaKo) + Оригинал + Commentary + Субтитры]
Торренты удалены по требованию правообладателя.
Участники
  • Раздают
    0
  • Качают
    0
  • Скачали
    9
  • Просмотров
    1232
  • Комментариев
    0
  • Сетевые участники
  • Раздают
    0
  • Качают
    0
  • Скачали
    0
  • Голосование
    Оценка
    IMDB: 8.7, 174567 голоса (ов), Кинопоиск: 8.736, 42209 голоса (ов)
    Характеристика
    RSS лента
    Залит
    5 лет, 3 месяца назад
    Вес
    68.70 GB
    Файлы
    13
    Категория
    Опубликовать ссылку
    Рекламный блок
    190x300
    Доктор Кто / Doctor Who // Сезон 5, эпизоды с 1 по 13 (из 13) (драма, 2010) [BDRip 720p, Профессиональный (многоголосый, закадровый от т/к SyFy, т/к Карусель) + Творческий (многоголосый, закадровый от BaibaKo) + Оригинал + Commentary + Субтитры] Золотой торрент
    Теги / Метки : [Не выбрано]

    IMDb 8.7
    http://s26.postimg.org/mh5xd5x1l/header_5.png

    Сезон 5, эпизоды с 1 по 13 (из 13)


    Год выпуска: 2010-2011
    Страна: Великобритания
    Производство: BBC Television Centre, Canadian Broadcasting Corporation (CBC)
    Статус: Продлен на 8-ой сезон
    Жанр: фантастика, драма, приключения, семейный

    Режиссёр: Адам Смит, Эндрю Ганн, Джонни Кэмпбелл, Кэтрин Морсхэд, Эшли Уэй, Тоби Хэйнс
    В ролях: Мэтт Смит (Matt Smith), Карен Гиллан (Karen Gillan), Артур Дарвилл (Arthur Darvill), Алекс Кингстон (Alex Kingston)


    Перевод:
  • Профессиональный (многоголосый, закадровый) от т/к SyFy (Эпизоды - 01-13)
  • Профессиональный (многоголосый, закадровый) от т/к Карусель (Эпизоды - 01-13)
  • Творческий (многоголосый, закадровый) от BaibaKo (Эпизоды - 01-13)
  • Оригинал (Эпизоды - 01-13)
  • Commentary (Эпизоды - 01-13)
    Озвучка: от т/к SyFy, т/к Карусель и BaibaKo
    Субтитры: Русские, английские: вшитые отключаемые

    Описание: "Доктор КТО" - это не имя, а вопрос, на который пока нет ответа. Известно, что тот, кто называет себя Доктором - Повелитель Времени с планеты Галлифрей. Сотни лет, веселый и мудрый, он путешествует сквозь время в своем Тардисе - корабле, внешне похожим на британский полицейский телефон-автомат, но почти бесконечно большим изнутри. На этот раз Доктор спасши из лап манекенов-убийц симпатичную блондинку по имени Роуз и найдя её в меру полезной, предлагает ей отправиться в своё путешествие вместе.
    Началось всё в далёком 1963 году с чёрно-белого сериала о человеке, называющем себя просто Доктор, который путешествует во времени и пространстве с целью спасения человечества. Сама идея - это огромное поле для фантазии любого автора. Поэтому и полюбилась эта история зрителям и читателям.
    За сорокадвухлетнюю историю сериала сменилось 9 актёров играющих Доктора. Каждый сериал выходил в свой отрезок времени и, порой перерывы между новыми эпизодами составляли несколько лет. Но зритель ждал субботних вечеров на BBC и дождался таки в 2005-ом году, долгожданного продолжения любимой истории.


  • Список эпизодов:




    О релизе:


    Качество: BDRip 720p
    Продолжительность: ~ 01:15:00 (Рождественский эпизод) / по ~ 00:48:00 (Сам сезон)

    Формат: MKV
    Видео кодек: AVC
    Аудио кодек: AC3 (т/к SyFy / т/к Карусель / BaibaKo / Commentary) / DTS (Оригинал)
    Свойства видео: 1280 x 720 (16:9), 25.000 fps, ~12.2 Mbps, ~0.600 bit/pixel
    Свойства аудио http://i31.fastpic.ru/big/2011/1013/b2/330331fabbf8bb03779e5b9a6dadccb2.png : 48 kHz, 2 ch, 384 kbps, Stereo (т/к SyFy и т/к Карусель)
    Свойства аудио http://i31.fastpic.ru/big/2011/1013/b2/330331fabbf8bb03779e5b9a6dadccb2.png : 48 kHz, 6 ch, 384 kbps, DD 5.1 (BaibaKo)
    Свойства аудио http://i31.fastpic.ru/big/2011/1013/b5/ba2901cd89fb16209c6482464a9fb1b5.png : 48 kHz, 6 ch, 2047 kbps, DD 5.1 (Оригинал)
    Свойства аудио http://i31.fastpic.ru/big/2011/1013/b5/ba2901cd89fb16209c6482464a9fb1b5.png : 48 kHz, 2 ch, 448 kbps, Stereo (Commentary)

    MediaInfo:
    bb code (исходный bb код)
    General
    Unique ID : 206729650997141341689690641578629991310 (0x9B86AEB9F23100E48B4A78280D9F0B8E)
    Complete name : C:HD SeriesDoctor.who.2010.s05.bdrip.720p.x264.3xrus.eng.commentary.2xsubs-by.TreeHillDoctor.who.2010.s05e11.bdrip.720p.x264.3xrus.eng.commentary.2xsubs-by.TreeHill.mkv
    Format : Matroska
    Format version : Version 4 / Version 2
    File size : 4.50 GiB
    Duration : 41mn 18s
    Overall bit rate : 15.6 Mbps
    Encoded date : UTC 2014-07-15 09:24:00
    Writing application : mkvmerge v6.1.0 ('Old Devil') built on Mar 4 2013 09:10:42
    Writing library : libebml v1.3.0 + libmatroska v1.4.0

    Video
    ID : 1
    Format : AVC
    Format/Info : Advanced Video Codec
    Format profile : [email protected]
    Format settings, CABAC : Yes
    Format settings, ReFrames : 4 frames
    Codec ID : V_MPEG4/ISO/AVC
    Duration : 41mn 18s
    Bit rate : 11.9 Mbps
    Width : 1 280 pixels
    Height : 720 pixels
    Display aspect ratio : 16:9
    Frame rate : 25.000 fps
    Color space : YUV
    Chroma subsampling : 4:2:0
    Bit depth : 8 bits
    Scan type : Progressive
    Bits/(Pixel*Frame) : 0.517
    Stream size : 3.36 GiB (75%)
    Title : Доктор Кто / Doctor Who // Сезон 5, эпизод 11 (из 13) [BDRip 720p, Профессиональный (многоголосый, закадровый от т/к Карусель) + Профессиональный (многоголосый, закадровый от т/к SyFy) + Творческий (многоголосый, закадровый от BaibaKo) + Оригинал + Commentary + Субтитры (русские, английские)] by TreeHill
    Writing library : x264 core 130 r2273 b3065e6
    Encoding settings : cabac=1 / ref=4 / deblock=1:0:0 / analyse=0x3:0x113 / me=hex / subme=7 / psy=1 / psy_rd=1.00:0.00 / mixed_ref=1 / me_range=16 / chroma_me=1 / trellis=1 / 8x8dct=1 / cqm=0 / deadzone=21,11 / fast_pskip=1 / chroma_qp_offset=-2 / threads=6 / lookahead_threads=1 / sliced_threads=0 / nr=0 / decimate=1 / interlaced=0 / bluray_compat=0 / constrained_intra=0 / bframes=4 / b_pyramid=2 / b_adapt=1 / b_bias=0 / direct=1 / weightb=1 / open_gop=0 / weightp=2 / keyint=250 / keyint_min=25 / scenecut=40 / intra_refresh=0 / rc_lookahead=40 / rc=abr / mbtree=1 / bitrate=11915 / ratetol=1.0 / qcomp=0.60 / qpmin=0 / qpmax=69 / qpstep=4 / ip_ratio=1.40 / aq=1:1.00
    Default : Yes
    Forced : No

    Audio #1
    ID : 2
    Format : AC-3
    Format/Info : Audio Coding 3
    Mode extension : CM (complete main)
    Codec ID : A_AC3
    Duration : 41mn 18s
    Bit rate mode : Constant
    Bit rate : 384 Kbps
    Channel(s) : 2 channels
    Channel positions : Front: L R
    Sampling rate : 48.0 KHz
    Bit depth : 16 bits
    Compression mode : Lossy
    Stream size : 113 MiB (2%)
    Title : Профессиональный (многоголосный, закадровый) от т/к SyFy
    Language : Russian
    Default : Yes
    Forced : No

    Audio #2
    ID : 3
    Format : AC-3
    Format/Info : Audio Coding 3
    Mode extension : CM (complete main)
    Codec ID : A_AC3
    Duration : 41mn 18s
    Bit rate mode : Constant
    Bit rate : 384 Kbps
    Channel(s) : 2 channels
    Channel positions : Front: L R
    Sampling rate : 48.0 KHz
    Bit depth : 16 bits
    Compression mode : Lossy
    Stream size : 113 MiB (2%)
    Title : Профессиональный (многоголосный, закадровый) от т/к Карусель (на не переведенные места, вставлен перевод от BaibaKo)
    Language : Russian
    Default : No
    Forced : No

    Audio #3
    ID : 4
    Format : AC-3
    Format/Info : Audio Coding 3
    Mode extension : CM (complete main)
    Codec ID : A_AC3
    Duration : 41mn 18s
    Bit rate mode : Constant
    Bit rate : 384 Kbps
    Channel(s) : 6 channels
    Channel positions : Front: L C R, Side: L R, LFE
    Sampling rate : 48.0 KHz
    Bit depth : 16 bits
    Compression mode : Lossy
    Stream size : 113 MiB (2%)
    Title : Творческий (многоголосный, закадровый) от BaibaKo
    Language : Russian
    Default : No
    Forced : No

    Audio #4
    ID : 5
    Format : DTS
    Format/Info : Digital Theater Systems
    Format profile : HRA / Core
    Codec ID : A_DTS
    Duration : 41mn 18s
    Bit rate mode : Constant
    Bit rate : 2 047 Kbps / 1 510 Kbps
    Channel(s) : 6 channels
    Channel positions : Front: L C R, Side: L R, LFE
    Sampling rate : 48.0 KHz
    Bit depth : 16 bits
    Compression mode : Lossy
    Stream size : 605 MiB (13%)
    Title : Оригинал
    Language : English
    Default : No
    Forced : No

    Audio #5
    ID : 6
    Format : AC-3
    Format/Info : Audio Coding 3
    Mode extension : CM (complete main)
    Codec ID : A_AC3
    Duration : 41mn 18s
    Bit rate mode : Constant
    Bit rate : 448 Kbps
    Channel(s) : 2 channels
    Channel positions : Front: L R
    Sampling rate : 48.0 KHz
    Bit depth : 16 bits
    Compression mode : Lossy
    Stream size : 132 MiB (3%)
    Title : Commentary
    Language : English
    Default : No
    Forced : No

    Text #1
    ID : 7
    Format : UTF-8
    Codec ID : S_TEXT/UTF8
    Codec ID/Info : UTF-8 Plain Text
    Language : Russian
    Default : Yes
    Forced : No

    Text #2
    ID : 8
    Format : UTF-8
    Codec ID : S_TEXT/UTF8
    Codec ID/Info : UTF-8 Plain Text
    Language : English
    Default : No
    Forced : No

    Menu
    00:00:00.000 : 00:00:00.000
    00:04:55.295 : 00:04:55.295
    00:07:43.254 : 00:07:43.254
    00:12:37.715 : 00:12:37.715
    00:16:20.438 : 00:16:20.438
    00:21:00.718 : 00:21:00.718
    00:27:04.456 : 00:27:04.456
    00:31:41.399 : 00:31:41.399
    00:35:47.645 : 00:35:47.645
    00:37:38.423 : 00:37:38.423
    00:40:58.621 : 00:40:58.621

    Нажмите чтобы закрыть спойлер: MediaInfo:

    Проверил раздачу

    Загрузка / Обновление

    :: Список Комментариев
    Нет комментариев.

     Нет комментариев
    Tesla v. Pearl © 2019
    Информация, расположенная на данном сервере, предназначена исключительно для частного использования
    и не может быть загружена/перенесена на другой компьютер. Ни владелец сайта, ни хостинг-провайдер,
    ни любые другие физические или юридические лица не могут нести никакой отвественностиза любое использование материалов данного сайта.

    Страничка сгенерирована за 0.915 секунд .